Τρίτη, 10 Μαΐου 2011

The Chronicles of Narnia: The Voyage of the Dawn Treader (2010) 720p BDRip gr subs

Πλοκή: Ο Έντμοντ και η Λούσι, μαζί με τον ξάδερφό τους Γιουστέις, τον μεγαλοπρεπή φίλο τους Κάσπιαν και ένα ριψοκίνδυνο ποντίκι με το όνομα Ρίπιτσιπ, βρίσκονται ξαφνικά μέσα σε έναν πίνακα και στο πλοίο Dawn Treader.
Η αποστολή τους - από την οποία εξαρτάται η μοίρα ολόκληρης της Νάρνια - θα τους οδηγήσει σε μυστηριώδη νησιά, σε μοιραίες αναμετρήσεις με μαγικά πλάσματα και απειλητικούς εχθρούς, αλλά και στην επανασύνδεση με τον φίλο και προστάτη τους, το λιοντάρι Άσλαν.


Κατηγορία: Adventure, Family, Fantasy
Ηθοποιοί: Georgie Henley, Skandar Keynes, Ben Barnes, Will Poulter, Gary Sweet
Σκηνοθεσία: Michael Apted
Σενάριο: Christopher Markus, Stephen McFeely
Πρεμιέρα: 9 December 2010 (Greece)
Χώρα παραγωγής: USA
Γλώσσα: English
Διάρκεια: 105'
ΕΛΛΗΝΙΚΟΙ ΥΠΟΤΙΤΛΟΙ ΞΕΧΩΡΙΣΤΟΙ by Stannama GMTeam

Official Site: http://www.narnia.com/games/
imdb Link: http://www.imdb.com/title/tt0980970/
 
General
Complete name : The.Chronicles.of.Narnia.The.Voyage.of.the.Dawn.Treader.2010.720p.BDRip.XviD.AC3-ViSiON.avi
Format : AVI
Format/Info : Audio Video Interleave
Format profile : OpenDML
File size : 2.73 GiB
Duration : 1h 52mn
Overall bit rate : 3 475 Kbps
Writing application : VirtualDubMod 1.5.10.2 (build 2542/release)
Writing library : VirtualDubMod build 2542/release

Video
ID : 0
Format : MPEG-4 Visual
Format profile : Advanced Simple@L5
Format settings, BVOP : Yes
Format settings, QPel : No
Format settings, GMC : No warppoints
Format settings, Matrix : Custom
Muxing mode : Packed bitstream
Codec ID : XVID
Codec ID/Hint : XviD
Duration : 1h 52mn
Bit rate : 3 016 Kbps
Width : 1 280 pixels
Height : 720 pixels
Display aspect ratio : 16:9
Frame rate : 23.976 fps
Color space : YUV
Chroma subsampling : 4:2:0
Bit depth : 8 bits
Scan type : Progressive
Compression mode : Lossy
Bits/(Pixel*Frame) : 0.136
Stream size : 2.37 GiB (87%)
Writing library : XviD 1.2.1 (UTC 2008-12-04)

Audio
ID : 1
Format : AC-3
Format/Info : Audio Coding 3
Mode extension : CM (complete main)
Codec ID : 2000
Duration : 1h 52mn
Bit rate mode : Constant
Bit rate : 448 Kbps
Channel(s) : 6 channels
Channel positions : Front: L C R, Side: L R, LFE
Sampling rate : 48.0 KHz
Bit depth : 16 bits
Compression mode : Lossy
Stream size : 361 MiB (13%)
Alignment : Split accross interleaves
Interleave, duration : 42 ms (1.00 video frame)
Interleave, preload duration : 500 ms



http://hotfile.com/dl/111611054/8ab4499/nar3bdrip.part1.rar.html
http://hotfile.com/dl/111611538/889c774/nar3bdrip.part2.rar.html
http://hotfile.com/dl/111611978/763f01d/nar3bdrip.part3.rar.html
http://hotfile.com/dl/111612061/751e0c5/nar3bdrip.part4.rar.html
gr subs
http://www.megaupload.com/?d=1LQ3M3LF

Δεν υπάρχουν σχόλια:

Δημοσίευση σχολίου

Disclaimer

All the content and download links in this blog originally found from various websites,blogs and forums. Any credits should goes to the original rippers and uploaders. angi doesn't host any files & shall not take any responsibility for the content (image/audio/video/dead links etc). Download at your own risk. Please support the real owners of the artwork & legal copyright by buying their original copy of artwork.

Back to TOP